www.Forumcular.Cinebb.Com
Forum, Chat, Sohbet, Paylasim, Müzik, Mp3, Video, izle, Film, Msn, limewire, winamp, Vizyon, Siir, Ask, Sevgi, Kalp, Facebook, Favori, Youtube, izlesene, video izle, film izle

www.Forumcular.Cinebb.Com

Forum, Chat, Sohbet, Paylasim, Müzik, Mp3, Video, izle, Film, Msn, limewire, winamp, Vizyon, Siir, Ask, Sevgi, Kalp, Facebook, Favori, Youtube, izlesene, video izle, film izle


 
AnasayfaSSSÜye ListesiKullanıcı GruplarıAramaKayıt OlGiriş yap

Paylaş | 
 

 Avatar (2009) 480p TS XviD AC3 | TekLink

Önceki başlık Sonraki başlık Aşağa gitmek 
YazarMesaj
DraqoN
Webmaster
Webmaster
avatar

Erkek
Mesaj Sayısı : 1365
Yaş : 29
Nerden : AdaNa
Hobileri : Spor
Meslek : Öqrenci
RuhHaLi : Sinirli
Teşekürler : 0
Kayıt tarihi : 07/09/07

MesajKonu: Avatar (2009) 480p TS XviD AC3 | TekLink   Perş. Ocak 28, 2010 11:44 pm


FİLM BİLGİLERİ

Ripper ...........: IMAGiNE Rating.......:8.7/10
Video Codec.......:XVID
Audio Codec.......:MPEG Audio
Audio Bitrate.....:128
Runtime...........:2h 33mn
Subtitles.........:NIL
Language..........:ENGLISH
Resolution........:704 x 288

DETAILS:
General
Complete name : C:\Movies\Avatar.TS.XviD - IMAGiNE.avi
Format : AVI
Format/Info : Audio Video Interleave
File size : 1.50 GiB
Duration : 2h 33mn
Overall bit rate : 1 398 Kbps
Writing library : VirtualDub build 30091/release
Video
ID : 0
Format : MPEG-4 Visual
Format profile : Advanced Simple@L5
Format settings, BVOP : Yes
Format settings, QPel : No
Format settings, GMC : No warppoints
Format settings, Matrix : Custom
Codec ID : XVID
Codec ID/Hint : XviD
Duration : 2h 33mn
Bit rate : 1 264 Kbps
Width : 704 pixels
Height : 288 pixels
Display aspect ratio : 2.40:1
Frame rate : 25.000 fps
Resolution : 8 bits
Colorimetry : 4:2:0
Scan type : Progressive
Bits/(Pixel*Frame) : 0.249
Stream size : 1.36 GiB (90%)
Writing library : XviD 1.2.1 (UTC 2008-12-04)
Audio
ID : 1
Format : MPEG Audio
Format version : Version 1
Format profile : Layer 3
Mode : Joint stereo / MS Stereo
Codec ID : 55
Codec ID/Hint : MP3
Duration : 2h 33mn
Bit rate mode : Variable
Bit rate : 121 Kbps
Nominal bit rate : 128 Kbps
Channel(s) : 2 channels
Sampling rate : 44.1 KHz
Stream size : 134 MiB (9%)
Alignment : Aligned on interleaves
Interleave, duration : 26 ms (0.65 video frame)
Interleave, preload duration : 542 ms

İNDİRECEĞİNİZ LİNKTEKİ FİLMDEN GÖRÜNTÜLER






http://x7.to/eirwye

ALTYAZI
http://divxplanet.com/sub/s/150962/Avatar.html
Filmin Şuan için en iyi görüntüye sahip halidir.
Kendi Uploadım olup ŞİFRESİZDİR.Böyle Bir Paylaşım için bir teşekkürü çok görmezseniz Sevinirm.

_________________
Sayfa başına dön Aşağa gitmek
Kullanıcı profilini gör http://Forumcular.Cinebb.com
 
Avatar (2009) 480p TS XviD AC3 | TekLink
Önceki başlık Sonraki başlık Sayfa başına dön 
1 sayfadaki 1 sayfası
 Similar topics
-
» WE8 2009 YAMASI FULL ÇALIŞIYO
» FM 2009 Nasıl Kaldırılır ?
» 2009'un merakla beklenen 10 gişe filmi
» [2009] Ferdi Tayfur - Boynu Bükük Sarkilarim
» Fm 2009 Kayıtlı Oyun Editör

Bu forumun müsaadesi var:Bu forumdaki mesajlara cevap veremezsiniz
www.Forumcular.Cinebb.Com :: Filmler :: Yabancı filmler-
Buraya geçin: